машина времени лучшее часть 1

Машина Времени

«Машина времени» – советская и российская рок-группа. В репертуаре коллектива – смесь рока, блюза и бардовых песен, в результате чего получаются легко запоминающиеся композиции с понятными текстами.

Группа была основана 27 мая 1969 года Андреем Макаревичем и Сергеем Кавагоэ. Ребята по началу работали с самыми различными исполнителями и постоянно меняли название коллектива. Как и многие группы того времени, они исполняли музыку популярных западных исполнителей.

В 1969 году была выпущена первая пластинка с названием The Machines, именно так тогда называлась и сама группа. В список вошли 11 песен, исполненных на английском языке.

В 1970 году состав группы претерпел сильные изменения. После ряда концертов и бит-выступлений название группы под влиянием поклонников было изменено на Машина времени в 1973 году.

В 1975 году группа записывает русскоязычную версию одного из старых альбомов на профессиональном оборудовании в студии звукозаписи.

В следующем году коллектив выступал на фестивале в Таллине. После ряда концертов состав претерпел изменения, и при повторном визите в Эстонию Машина времени уже не имела такого успеха.

Летом 1978 года самые знаменитые песни группы были перезаписаны в домашних условиях. Даже несмотря на проблемы со звуком и общее невысокое качество записи – альбом быстро разошелся среди поклонников группы.

Весной 1979 года кризис в отношении между Канагоэ и Макаревичем достигает своего пика, в результате чего лидеры группы не смогли найти общий язык. Машина времени вновь распадается и собирается в новом составе под лидерством Андрея Макаревича.

Первая половина 80-х стала кризисным для группы – ребята подвергаются цензуре, и ряд концертных выступлений вовсе отменяют. К коллективу приставляется куратор.

Настоящим моментом выхода группы из подполья стал 1986 год. Именно тогда Машина времени по праву стала считаться всесоюзной.

С этого периода начались официальные выступления группы, гастроли и выпуски песен и альбомов.

Творчество группы Машина времени и всех ее участников можно смело отнести к бунтарским представителям тогдашнего Советского Союза. Коллектив продолжал выступать и выпускать альбомы, а также радовать поклонников своим творчеством несмотря ни на что. Пережив попытки репрессий и цензуры, ребята продолжали свой путь к сердцам слушателей. Бесплатно скачать и слушать онлайн песни группы Машина времени в mp3 можно непосредственно на нашем сайте. Приятного прослушивания!

Источник

Hit-Muzik.ru

Привет, Гость
low l low r

Наша группа в ВК
low l low r

center l Копилка сайта и ваш заработок крипты center r
low l low r

center l Правообладателям center r

Просьба это учесть при оформлении письма (ем).

low l low r

center l Связанные раздачи center r
low l low r

default torrent

86f4a15e44d518238bfde91708849acc

648fafa2e01a00f96ce463dbc7b8399b

Exact Audio Copy V0.99 prebeta 5 from 4. May 2009

Отчёт EAC об извлечении, выполненном 26. февраля 2012, 15:33

Машина Времени / Лучшее Часть 1 (CD1)

Дисковод: Optiarc DVD RW AD-7173A Adapter: 6 ID: 0

Режим чтения : Достоверность
Использование точного потока : Да
Отключение кэша аудио : Да
Использование указателей C2 : Нет

Коррекция смещения при чтении : 48
Способность читать области Lead-in и Lead-out : Нет
Заполнение пропущенных сэмплов тишиной : Да
Удаление блоков с тишиной в начале и конце : Нет
При вычислениях CRC использовались нулевые сэмплы : Да
Интерфейс : Установленный внешний ASPI-интерфейс

Выходной формат : Внутренние WAV-операции
Формат сэмплов : 44.100 Гц; 16 бит; стерео

TOC извлечённого CD

Трек | Старт | Длительность | Начальный сектор | Конечный сектор
———————————————————————
1 | 0:00.00 | 3:44.73 | 0 | 16872
2 | 3:44.73 | 3:33.70 | 16873 | 32917
3 | 7:18.68 | 4:14.40 | 32918 | 52007
4 | 11:33.33 | 3:16.00 | 52008 | 66707
5 | 14:49.33 | 3:36.30 | 66708 | 82937
6 | 18:25.63 | 3:11.13 | 82938 | 97275
7 | 21:37.01 | 3:16.38 | 97276 | 112013
8 | 24:53.39 | 4:25.53 | 112014 | 131941
9 | 29:19.17 | 2:17.05 | 131942 | 142221
10 | 31:36.22 | 4:29.62 | 142222 | 162458
11 | 36:06.09 | 3:48.40 | 162459 | 179598
12 | 39:54.49 | 3:36.72 | 179599 | 195870
13 | 43:31.46 | 2:23.42 | 195871 | 206637
14 | 45:55.13 | 3:07.00 | 206638 | 220662
15 | 49:02.13 | 3:51.53 | 220663 | 238040
16 | 52:53.66 | 2:56.23 | 238041 | 251263
17 | 55:50.14 | 3:46.23 | 251264 | 268236
18 | 59:36.37 | 2:52.45 | 268237 | 281181
19 | 62:29.07 | 2:32.23 | 281182 | 292604
20 | 65:01.30 | 4:34.00 | 292605 | 313154
21 | 69:35.30 | 2:22.20 | 313155 | 323824
22 | 71:57.50 | 4:28.08 | 323825 | 343932
23 | 76:25.58 | 3:30.30 | 343933 | 359712

Характеристики диапазона извлечения и сообщения об ошибках

Пиковый уровень 100.0 %
Качество диапазона 100.0 %
CRC теста B78E4C18
CRC копии B78E4C18
Копирование. OK

Ошибок не произошло

Трек 1 нет в базе данных
Трек 2 нет в базе данных
Трек 3 нет в базе данных
Трек 4 нет в базе данных
Трек 5 нет в базе данных
Трек 6 нет в базе данных
Трек 7 нет в базе данных
Трек 8 нет в базе данных
Трек 9 нет в базе данных
Трек 10 нет в базе данных
Трек 11 нет в базе данных
Трек 12 нет в базе данных
Трек 13 нет в базе данных
Трек 14 нет в базе данных
Трек 15 нет в базе данных
Трек 16 нет в базе данных
Трек 17 нет в базе данных
Трек 18 нет в базе данных
Трек 19 нет в базе данных
Трек 20 нет в базе данных
Трек 21 нет в базе данных
Трек 22 нет в базе данных
Трек 23 нет в базе данных

Ни одного трека нет в базе AccurateRip

Exact Audio Copy V0.99 prebeta 5 from 4. May 2009

Отчёт EAC об извлечении, выполненном 26. февраля 2012, 15:50

Машина Времени / Лучшее Часть 2 (CD1)

Дисковод: Optiarc DVD RW AD-7173A Adapter: 6 ID: 0

Режим чтения : Достоверность
Использование точного потока : Да
Отключение кэша аудио : Да
Использование указателей C2 : Нет

Коррекция смещения при чтении : 48
Способность читать области Lead-in и Lead-out : Нет
Заполнение пропущенных сэмплов тишиной : Да
Удаление блоков с тишиной в начале и конце : Нет
При вычислениях CRC использовались нулевые сэмплы : Да
Интерфейс : Установленный внешний ASPI-интерфейс

Выходной формат : Внутренние WAV-операции
Формат сэмплов : 44.100 Гц; 16 бит; стерео

TOC извлечённого CD

Трек | Старт | Длительность | Начальный сектор | Конечный сектор
———————————————————————
1 | 0:00.00 | 3:35.37 | 0 | 16161
2 | 3:35.37 | 4:24.04 | 16162 | 35965
3 | 7:59.41 | 3:12.73 | 35966 | 50438
4 | 11:12.39 | 4:52.54 | 50439 | 72392
5 | 16:05.18 | 3:46.73 | 72393 | 89415
6 | 19:52.16 | 3:35.24 | 89416 | 105564
7 | 23:27.40 | 5:59.74 | 105565 | 132563
8 | 29:27.39 | 5:29.44 | 132564 | 157282
9 | 34:57.08 | 5:49.30 | 157283 | 183487
10 | 40:46.38 | 1:35.68 | 183488 | 190680
11 | 42:22.31 | 3:38.18 | 190681 | 207048
12 | 46:00.49 | 2:31.36 | 207049 | 218409
13 | 48:32.10 | 3:06.01 | 218410 | 232360
14 | 51:38.11 | 4:07.02 | 232361 | 250887
15 | 55:45.13 | 2:20.74 | 250888 | 261461
16 | 58:06.12 | 4:08.66 | 261462 | 280127
17 | 62:15.03 | 4:26.63 | 280128 | 300140
18 | 66:41.66 | 2:27.02 | 300141 | 311167
19 | 69:08.68 | 4:08.72 | 311168 | 329839
20 | 73:17.65 | 6:34.05 | 329840 | 359394

Характеристики диапазона извлечения и сообщения об ошибках

Пиковый уровень 100.0 %
Качество диапазона 100.0 %
CRC теста B6E9588C
CRC копии B6E9588C
Копирование. OK

Ошибок не произошло

Трек 1 нет в базе данных
Трек 2 нет в базе данных
Трек 3 нет в базе данных
Трек 4 нет в базе данных
Трек 5 нет в базе данных
Трек 6 нет в базе данных
Трек 7 нет в базе данных
Трек 8 нет в базе данных
Трек 9 нет в базе данных
Трек 10 нет в базе данных
Трек 11 нет в базе данных
Трек 12 нет в базе данных
Трек 13 нет в базе данных
Трек 14 нет в базе данных
Трек 15 нет в базе данных
Трек 16 нет в базе данных
Трек 17 нет в базе данных
Трек 18 нет в базе данных
Трек 19 нет в базе данных
Трек 20 нет в базе данных

Ни одного трека нет в базе AccurateRip

Exact Audio Copy V0.99 prebeta 5 from 4. May 2009

Отчёт EAC об извлечении, выполненном 26. февраля 2012, 15:37

Машина Времени / Лучшее Часть 1 (CD2)

Дисковод: Optiarc DVD RW AD-7173A Adapter: 6 ID: 0

Режим чтения : Достоверность
Использование точного потока : Да
Отключение кэша аудио : Да
Использование указателей C2 : Нет

Коррекция смещения при чтении : 48
Способность читать области Lead-in и Lead-out : Нет
Заполнение пропущенных сэмплов тишиной : Да
Удаление блоков с тишиной в начале и конце : Нет
При вычислениях CRC использовались нулевые сэмплы : Да
Интерфейс : Установленный внешний ASPI-интерфейс

Выходной формат : Внутренние WAV-операции
Формат сэмплов : 44.100 Гц; 16 бит; стерео

TOC извлечённого CD

Трек | Старт | Длительность | Начальный сектор | Конечный сектор
———————————————————————
1 | 0:00.00 | 3:52.38 | 0 | 17437
2 | 3:52.38 | 4:13.18 | 17438 | 36430
3 | 8:05.56 | 3:02.00 | 36431 | 50080
4 | 11:07.56 | 5:05.15 | 50081 | 72970
5 | 16:12.71 | 1:44.40 | 72971 | 80810
6 | 17:57.36 | 2:45.00 | 80811 | 93185
7 | 20:42.36 | 1:55.53 | 93186 | 101863
8 | 22:38.14 | 2:01.53 | 101864 | 110991
9 | 24:39.67 | 3:23.25 | 110992 | 126241
10 | 28:03.17 | 5:20.40 | 126242 | 150281
11 | 33:23.57 | 4:00.38 | 150282 | 168319
12 | 37:24.20 | 5:18.46 | 168320 | 192215
13 | 42:42.66 | 4:21.38 | 192216 | 211828
14 | 47:04.29 | 5:00.07 | 211829 | 234335
15 | 52:04.36 | 4:17.17 | 234336 | 253627
16 | 56:21.53 | 4:10.45 | 253628 | 272422
17 | 60:32.23 | 4:15.18 | 272423 | 291565
18 | 64:47.41 | 4:18.53 | 291566 | 310968
19 | 69:06.19 | 5:00.33 | 310969 | 333501
20 | 74:06.52 | 3:38.16 | 333502 | 349867

Характеристики диапазона извлечения и сообщения об ошибках

Пиковый уровень 100.0 %
Качество диапазона 100.0 %
CRC теста 947E0200
CRC копии 947E0200
Копирование. OK

Ошибок не произошло

Трек 1 нет в базе данных
Трек 2 нет в базе данных
Трек 3 нет в базе данных
Трек 4 нет в базе данных
Трек 5 нет в базе данных
Трек 6 нет в базе данных
Трек 7 нет в базе данных
Трек 8 нет в базе данных
Трек 9 нет в базе данных
Трек 10 нет в базе данных
Трек 11 нет в базе данных
Трек 12 нет в базе данных
Трек 13 нет в базе данных
Трек 14 нет в базе данных
Трек 15 нет в базе данных
Трек 16 нет в базе данных
Трек 17 нет в базе данных
Трек 18 нет в базе данных
Трек 19 нет в базе данных
Трек 20 нет в базе данных

Ни одного трека нет в базе AccurateRip

Exact Audio Copy V0.99 prebeta 5 from 4. May 2009

Отчёт EAC об извлечении, выполненном 26. февраля 2012, 16:05

Машина Времени / Лучшее Часть 2 (CD2)

Дисковод: Optiarc DVD RW AD-7173A Adapter: 6 ID: 0

Режим чтения : Достоверность
Использование точного потока : Да
Отключение кэша аудио : Да
Использование указателей C2 : Нет

Коррекция смещения при чтении : 48
Способность читать области Lead-in и Lead-out : Нет
Заполнение пропущенных сэмплов тишиной : Да
Удаление блоков с тишиной в начале и конце : Нет
При вычислениях CRC использовались нулевые сэмплы : Да
Интерфейс : Установленный внешний ASPI-интерфейс

Выходной формат : Внутренние WAV-операции
Формат сэмплов : 44.100 Гц; 16 бит; стерео

TOC извлечённого CD

Трек | Старт | Длительность | Начальный сектор | Конечный сектор
———————————————————————
1 | 0:00.00 | 4:31.21 | 0 | 20345
2 | 4:31.21 | 4:31.08 | 20346 | 40678
3 | 9:02.29 | 4:44.00 | 40679 | 61978
4 | 13:46.29 | 4:02.30 | 61979 | 80158
5 | 17:48.59 | 3:40.45 | 80159 | 96703
6 | 21:29.29 | 3:55.69 | 96704 | 114397
7 | 25:25.23 | 3:36.53 | 114398 | 130650
8 | 29:02.01 | 3:47.05 | 130651 | 147680
9 | 32:49.06 | 3:43.45 | 147681 | 164450
10 | 36:32.51 | 3:00.74 | 164451 | 178024
11 | 39:33.50 | 2:45.69 | 178025 | 190468
12 | 42:19.44 | 3:57.64 | 190469 | 208307
13 | 46:17.33 | 3:50.55 | 208308 | 225612
14 | 50:08.13 | 3:06.62 | 225613 | 239624
15 | 53:15.00 | 2:14.23 | 239625 | 249697
16 | 55:29.23 | 2:20.19 | 249698 | 260216
17 | 57:49.42 | 4:43.55 | 260217 | 281496
18 | 62:33.22 | 2:54.70 | 281497 | 294616
19 | 65:28.17 | 2:21.13 | 294617 | 305204
20 | 67:49.30 | 4:55.15 | 305205 | 327344
21 | 72:44.45 | 5:24.52 | 327345 | 351696

Характеристики диапазона извлечения и сообщения об ошибках

Пиковый уровень 100.0 %
Качество диапазона 100.0 %
CRC теста D9696153
CRC копии D9696153
Копирование. OK

Ошибок не произошло

Трек 1 нет в базе данных
Трек 2 нет в базе данных
Трек 3 нет в базе данных
Трек 4 нет в базе данных
Трек 5 нет в базе данных
Трек 6 нет в базе данных
Трек 7 нет в базе данных
Трек 8 нет в базе данных
Трек 9 нет в базе данных
Трек 10 нет в базе данных
Трек 11 нет в базе данных
Трек 12 нет в базе данных
Трек 13 нет в базе данных
Трек 14 нет в базе данных
Трек 15 нет в базе данных
Трек 16 нет в базе данных
Трек 17 нет в базе данных
Трек 18 нет в базе данных
Трек 19 нет в базе данных
Трек 20 нет в базе данных
Трек 21 нет в базе данных

Источник

mashina vremeni luchshee chast 1 2 4cd 1

Формат: MP3, tracks, 320kbps
Год выпуска: 2009
Страна: Россия
Жанр: Rock
Продолжительность: 05:16:40
Описание:

01. Поворот [0:03:44.73]
02. За Тех, Кто В Море [0:03:33.70]
03. Марионетки [0:04:14.40]
04. Старый Корабль [0:03:16.00]
05. Наш Дом [0:03:36.30]
06. Старый Рок-н-Ролл [0:03:11.13]
07. Скачки [0:03:16.38]
08. Ты Или Я [0:04:25.53]
09. Синяя Птица [0:02:17.05]
10. Над Нашим Домом [0:04:29.62]
11. Костер [0:03:48.40]
12. Люди В Лодках [0:03:36.72]
13. Кошка [0:02:23.42]
14. Право [0:03:07.00]
15. Скворец [0:03:51.53]
16. Рыбка В Банке [0:02:56.23]
17. Песня, Которой Нет [0:03:46.23]
18. Флаг Над Замком [0:02:52.45]
19. Разговор В Поезде [0:02:32.23]
20. Музыка Под Снегом [0:04:34.00]
21. Она Идет По Жизни, Смеясь [0:02:22.20]
22. Три Окна [0:04:28.08]
23. В Добрый Час [0:03:30.30]

01. Если Бы Мы Были Взрослей [0:03:52.38]
02. Пока Горит Свеча [0:04:13.18]
03. Снег [0:03:02.00]
04. Кого Ты Хотел Удивить [0:05:05.15]
05. Песня Про Солдата [0:01:44.40]
06. Ах,Что За Луна [0:02:45.00]
07. День Гнева [0:01:55.53]
08. По Морю Плавать. [0:02:01.53]
09. Путь [0:03:23.25]
10. Я Сюда Ещё Вернусь [0:05:20.40]
11. День Рождения [0:04:00.38]
12. Сколько Лет,Сколько Зим [0:05:18.46]
13. Барьер [0:04:21.38]
14. Старые Друзья [0:05:00.07]
15. Время [0:04:17.17]
16. Флюгер [0:04:10.45]
17. Там,Где Будет Новый День [0:04:15.18]
18. Между Тем,Что Было И Тем,Что Будет [0:04:18.53]
19. В Круге Света [0:05:00.33]
20. Шанхай Блюз [0:03:38.16]

01. То Что Люди Поют По Дороге Домой [0:03:35.37]
02. Дорога В Небо [0:04:24.04]
03. Однажды Мир Прогнется Под Нас [0:03:12.73]
04. То, Чего Больше Нет [0:04:52.54]
05. Мы Расходимся По Домам [0:03:46.73]
06. Он Был Старше Ее [0:03:35.24]
07. Пой [0:05:59.74]
08. Вверх [0:05:29.44]
09. Круги На Воде [0:05:49.30]
10. Я Рядом С Тобой [0:01:35.68]
11. Знаю Только Я [0:03:38.18]
12. Я Дам Тебе Знать [0:02:31.36]
13. Когда Я Был Большим [0:03:06.01]
14. Мой Друг (Лучше Всех Играет Блюз) [0:04:07.02]
15. Такие Дела, Ангел Мой [0:02:20.74]
16. Старая Песня О Главном [0:04:08.66]
17. Место Где Свет [0:04:26.63]
18. Не Дай Мне Упасть [0:02:27.02]
19. Новая Весна Тебя Убьёт [0:04:08.72]
20. Звезды Не Ездят В Метро [0:06:34.05]

01. Полный Контакт [0:04:31.21]
02. Картонные Крылья Любви [0:04:31.08]
03. Это Любовь Детка [0:04:44.00]
04. Он Играет На Похоронах И Танцах [0:04:02.30]
05. Спускаясь К Великой Реке [0:03:40.45]
06. Старая Дорога [0:03:55.69]
07. Улетай [0:03:36.53]
08. Эпоха Большой Нелюбви [0:03:47.05]
09. Имитация [0:03:43.45]
10. Проводница [0:03:00.74]
11. На Заднем Дворе [0:02:45.69]
12. Финал [0:03:57.64]
13. Дай Мне Руку, Душа Моя [0:03:50.55]
14. Фрейлекс [0:03:06.62]
15. Меня Заказали [0:02:14.23]
16. Когда Мы Уйдем [0:02:20.19]
17. Не Плачь Обо Мне [0:04:43.55]
18. Прости Сегодня За Вчера [0:02:54.70]
19. Рыбак Рыбака [0:02:21.13]
20. По Дороге В Непал [0:04:55.15]
21. Утренний Ангел Пустых Бутылок [0:05:24.52]
Доп. информация: Рипы с моих дисков из моей фонотеки.

Релиз группы: mashina vremeni luchshee chast 1 2 4cd 4

mashina vremeni mashina vremeni na kreshhatike 1

1594 kbps avg, 0.22 bit/pixel
Аудио: 48 kHz, AC3 Dolby Digital, 2/0 (L,R) ch,

Источник

Hit-Muzik.ru

Привет, Гость
low l low r

Наша группа в ВК
low l low r

center l Копилка сайта и ваш заработок крипты center r
low l low r

center l Правообладателям center r

Просьба это учесть при оформлении письма (ем).

low l low r

center l Связанные раздачи center r
low l low r

default torrent

Формат: MP3, tracks, 320kbps
Год выпуска: 2009
Страна: Россия
Жанр: Rock
Продолжительность: 05:16:40
Описание:

01. Поворот [0:03:44.73]
02. За Тех, Кто В Море [0:03:33.70]
03. Марионетки [0:04:14.40]
04. Старый Корабль [0:03:16.00]
05. Наш Дом [0:03:36.30]
06. Старый Рок-н-Ролл [0:03:11.13]
07. Скачки [0:03:16.38]
08. Ты Или Я [0:04:25.53]
09. Синяя Птица [0:02:17.05]
10. Над Нашим Домом [0:04:29.62]
11. Костер [0:03:48.40]
12. Люди В Лодках [0:03:36.72]
13. Кошка [0:02:23.42]
14. Право [0:03:07.00]
15. Скворец [0:03:51.53]
16. Рыбка В Банке [0:02:56.23]
17. Песня, Которой Нет [0:03:46.23]
18. Флаг Над Замком [0:02:52.45]
19. Разговор В Поезде [0:02:32.23]
20. Музыка Под Снегом [0:04:34.00]
21. Она Идет По Жизни, Смеясь [0:02:22.20]
22. Три Окна [0:04:28.08]
23. В Добрый Час [0:03:30.30]

01. Если Бы Мы Были Взрослей [0:03:52.38]
02. Пока Горит Свеча [0:04:13.18]
03. Снег [0:03:02.00]
04. Кого Ты Хотел Удивить [0:05:05.15]
05. Песня Про Солдата [0:01:44.40]
06. Ах,Что За Луна [0:02:45.00]
07. День Гнева [0:01:55.53]
08. По Морю Плавать. [0:02:01.53]
09. Путь [0:03:23.25]
10. Я Сюда Ещё Вернусь [0:05:20.40]
11. День Рождения [0:04:00.38]
12. Сколько Лет,Сколько Зим [0:05:18.46]
13. Барьер [0:04:21.38]
14. Старые Друзья [0:05:00.07]
15. Время [0:04:17.17]
16. Флюгер [0:04:10.45]
17. Там,Где Будет Новый День [0:04:15.18]
18. Между Тем,Что Было И Тем,Что Будет [0:04:18.53]
19. В Круге Света [0:05:00.33]
20. Шанхай Блюз [0:03:38.16]

01. То Что Люди Поют По Дороге Домой [0:03:35.37]
02. Дорога В Небо [0:04:24.04]
03. Однажды Мир Прогнется Под Нас [0:03:12.73]
04. То, Чего Больше Нет [0:04:52.54]
05. Мы Расходимся По Домам [0:03:46.73]
06. Он Был Старше Ее [0:03:35.24]
07. Пой [0:05:59.74]
08. Вверх [0:05:29.44]
09. Круги На Воде [0:05:49.30]
10. Я Рядом С Тобой [0:01:35.68]
11. Знаю Только Я [0:03:38.18]
12. Я Дам Тебе Знать [0:02:31.36]
13. Когда Я Был Большим [0:03:06.01]
14. Мой Друг (Лучше Всех Играет Блюз) [0:04:07.02]
15. Такие Дела, Ангел Мой [0:02:20.74]
16. Старая Песня О Главном [0:04:08.66]
17. Место Где Свет [0:04:26.63]
18. Не Дай Мне Упасть [0:02:27.02]
19. Новая Весна Тебя Убьёт [0:04:08.72]
20. Звезды Не Ездят В Метро [0:06:34.05]

01. Полный Контакт [0:04:31.21]
02. Картонные Крылья Любви [0:04:31.08]
03. Это Любовь Детка [0:04:44.00]
04. Он Играет На Похоронах И Танцах [0:04:02.30]
05. Спускаясь К Великой Реке [0:03:40.45]
06. Старая Дорога [0:03:55.69]
07. Улетай [0:03:36.53]
08. Эпоха Большой Нелюбви [0:03:47.05]
09. Имитация [0:03:43.45]
10. Проводница [0:03:00.74]
11. На Заднем Дворе [0:02:45.69]
12. Финал [0:03:57.64]
13. Дай Мне Руку, Душа Моя [0:03:50.55]
14. Фрейлекс [0:03:06.62]
15. Меня Заказали [0:02:14.23]
16. Когда Мы Уйдем [0:02:20.19]
17. Не Плачь Обо Мне [0:04:43.55]
18. Прости Сегодня За Вчера [0:02:54.70]
19. Рыбак Рыбака [0:02:21.13]
20. По Дороге В Непал [0:04:55.15]
21. Утренний Ангел Пустых Бутылок [0:05:24.52]

Источник

Поделиться с друзьями
admin
Adblock
detector